Špatný poměr stran na TV ale na PC dobré

Sekce pro řešení potíží s přehráváním multimédií (kodeky, přehrávače..) nebo s vypalováním...

Moderátor: Mods_senior

postcd
Level 1
Level 1
Příspěvky: 52
Registrován: leden 14
Pohlaví: Muž

Špatný poměr stran na TV ale na PC dobré

Příspěvekod postcd » 18 zář 2020 17:05

Dobrý den,

stáhl jsem video, na PC se přehrává dobře (přehrávač MPC-HC s výchozím poměrem stran), ale když připojím k TV flash disk a video přehrávám tak je poměr stran špatně, video vyplní obrazovku a je zploštělé. Možná bych mohl poměr stran manuálně na TV nastavit jinak. Ale jde mi o to jak to video překódovat aby ho i televize zobrazila správně, jak zjistit kde je problém. Jiná videa se tam automaticky přehrávají se správným poměrem.

Problematické video (na PC ok):
Off Topic
Video:
General
Format : AVI
Format/Info : Audio Video Interleave
File size : 446 MiB
Duration : 44mn 17s
Overall bit rate : 1 409 Kbps
Writing application : Lavf58.35.104

Video
ID : 0
Format : AVC
Format/Info : Advanced Video Codec
Format profile : Main@L4.1
Format settings, CABAC : Yes
Format settings, ReFrames : 2 frames
Codec ID : H264
Duration : 44mn 17s
Bit rate : 1 270 Kbps
Width : 828 pixels
Height : 472 pixels
Display aspect ratio : 1.370

Frame rate mode : Variable
Frame rate : 25.000 fps
Color space : YUV
Chroma subsampling : 4:2:0
Bit depth : 8 bits
Scan type : Progressive
Bits/(Pixel*Frame) : 0.130
Stream size : 402 MiB (90%)
Writing library : x264 core 159 r2991
Encoding settings : cabac=1 / ref=1 / deblock=1:0:0 / analyse=0x1:0x131 / me=hex / subme=5 / psy=1 / psy_rd=0.00:0.00 / mixed_ref=0 / me_range=16 / chroma_me=1 / trellis=0 / 8x8dct=0 / cqm=0 / deadzone=21,11 / fast_pskip=1 / chroma_qp_offset=0 / threads=6 / lookahead_threads=1 / sliced_threads=0 / nr=0 / decimate=1 / interlaced=0 / bluray_compat=0 / constrained_intra=0 / bframes=3 / b_pyramid=0 / b_adapt=1 / b_bias=0 / direct=0 / weightb=1 / open_gop=0 / weightp=2 / keyint=250 / keyint_min=25 / scenecut=40 / intra_refresh=0 / rc_lookahead=40 / rc=crf / mbtree=1 / crf=20.0 / qcomp=0.60 / qpmin=10 / qpmax=51 / qpstep=4 / vbv_maxrate=24000 / vbv_bufsize=24000 / crf_max=0.0 / nal_hrd=none / filler=0 / ip_ratio=1.40 / aq=1:1.00

Audio
ID : 1
Format : AC-3
Format/Info : Audio Coding 3
Mode extension : CM (complete main)
Format settings, Endianness : Big
Codec ID : 2000
Duration : 44mn 17s
Bit rate mode : Constant
Bit rate : 128 Kbps
Channel(s) : 2 channels
Channel positions : Front: L R
Sampling rate : 48.0 KHz
Bit depth : 16 bits
Compression mode : Lossy
Stream size : 40.5 MiB (9%)
Alignment : Aligned on interleaves
Interleave, duration : 32 ms (0.80 video frame)
Interleave, preload duration : 1856 ms


Jiné video TV přehrává správně:

Off Topic
Format : AVI
Format/Info : Audio Video Interleave
File size : 339 MiB
Duration : 38mn 23s
Overall bit rate : 1 233 Kbps

Video
ID : 0
Format : MPEG-4 Visual
Format profile : Advanced Simple@L5
Format settings, BVOP : 2
Format settings, QPel : No
Format settings, GMC : No warppoints
Format settings, Matrix : Default (MPEG)
Muxing mode : Packed bitstream
Codec ID : XVID
Codec ID/Hint : XviD
Duration : 38mn 23s
Bit rate : 1 038 Kbps
Width : 576 pixels
Height : 432 pixels
Display aspect ratio : 3:2
Frame rate : 25.000 fps
Color space : YUV
Chroma subsampling : 4:2:0
Bit depth : 8 bits
Scan type : Progressive
Compression mode : Lossy
Bits/(Pixel*Frame) : 0.167
Stream size : 285 MiB (84%)
Writing library : XviD 64


Je to tím, že televize nerozumí tomu poměru "Display aspect ratio : 1.370" ?
Program pro překódování videa mi umožňuje řadu poměrů stran, tak nevím které vybrat.

V parametrech TV se uvádí:
Nastavitelný poměr stran 8 režimů ( 16:9, Skenování, Původní, Plná šíře, 4:3, 14:9, Kino Přiblížení 1, Přiblížení)

Reklama
kasy
Level 1.5
Level 1.5
Příspěvky: 116
Registrován: květen 14
Pohlaví: Nespecifikováno

Re: Špatný poměr stran na TV ale na PC dobré

Příspěvekod kasy » 18 zář 2020 18:20

Televize nerozumí. Ani já nerozumím. Ty hodnoty 828, 472 jsou nejblíž 16:9. Přesně by to muselo být 828x465,75 nebo 839.11x472. Což je nesmysl. Zkus to překódovat na 16:9.

petr22
Guru Level 15
Guru Level 15
Příspěvky: 47300
Registrován: únor 12
Pohlaví: Muž

Re: Špatný poměr stran na TV ale na PC dobré

Příspěvekod petr22 » 18 zář 2020 19:00

Samozrejmne ze televize nerozumi nejakemu nesmyslnemu rozmeru stran.

16:9 nebo 4:3, nic jineho jako standard neexistuje.

Vse ostatni se doplnuje cernyma pruhama na standardni pomer stran.

Co to bylo za vemeno co dokaze vytvorit video co ma 828 pixelu na sirku,
vzdyt to neni ani vzdalene podobne 1280 nebo 1920 coz je take standard.

postcd
Level 1
Level 1
Příspěvky: 52
Registrován: leden 14
Pohlaví: Muž

Re: Špatný poměr stran na TV ale na PC dobré

Příspěvekod postcd » 21 zář 2020 12:35

zobrazilo se špatně (zploštělé - roztažení cca 4:3 videa do krajů širokoúhlé obrazovky TV):
Off Topic
Width : 830 pixels
Height : 478 pixels
Display aspect ratio : 1.430


zobrazilo se správně:
Off Topic
Width : 830 pixels
Height : 580 pixels
Display aspect ratio : 4:3


toto také:
Off Topic
Width : 828 pixels
Height : 604 pixels
Display aspect ratio : 4:3


Ale televizi asi nezáleží na tom "příznaku/značce" 4:3 ale asi na něčem jiném - možná na té výšce (height), jelikož mám za to, že se mi stalo že software Xmedia Recode to zakódoval tak, že v media přehrávači bylo vidět 4:3 ale video bylo stejně roztažené/zploštěné na TV.

Nevím jak zjistit jaké nastavení při kódování použít aby se to na TV zobrazilo správně ale vypozoroval jsem, že v tom programu Xmedia Recode (freeware) je potřeba nejprve video ořezat (protože v mém případě obsahuje na dolní straně nepříjemné vady a navíc má zbytečné černé pruhy po stranách), pak přepnout poměr stran na jiný a pak na 4:3 (nebo 16:9) a následně zatrhnout volbu Keep aspect ratio čímž se mi upravila výška videa. Prostě jak u blbejch. Jak jsem v prvním příspěvku vložil ty parametry videa, tak z toho nejde poznat zda bude video zobrazeno správně nebo bude špatně roztažené na TV?

kasy
Level 1.5
Level 1.5
Příspěvky: 116
Registrován: květen 14
Pohlaví: Nespecifikováno

Re: Špatný poměr stran na TV ale na PC dobré

Příspěvekod kasy » 21 zář 2020 13:07

Podívej se sem: https://calculateaspectratio.com/

Stačilo vložit dotaz do Googlu.

petr22
Guru Level 15
Guru Level 15
Příspěvky: 47300
Registrován: únor 12
Pohlaví: Muž

Re: Špatný poměr stran na TV ale na PC dobré

Příspěvekod petr22 » 21 zář 2020 13:50

Kde se vzal ten rozmer 830 pixelu na sirku ?

To je na hony vzdaleno jakemukoliv standardu - 1920 nebo 1280.

Ta cisla kdyz by mela byt delitelna cislem 16.


  • Mohlo by vás zajímat
    Odpovědi
    Zobrazení
    Poslední příspěvek
  • Změna poměru stran u QHD monitoru
    od Indy907 » 17 lis 2020 00:07 » v Vše ostatní (hw)
    0
    318
    od Indy907
    17 lis 2020 00:07
  • PS5: zaplacené členství pro špatný region
    od teichmann.ondrej » 29 pro 2020 19:20 » v Herní konzole
    2
    573
    od kachnak
    03 led 2021 10:15
  • Špatný update BIOS HP CQ61 315ec
    od marvel15 » 23 říj 2020 10:04 » v Vše ostatní (hw)
    1
    333
    od petr22
    23 říj 2020 10:51

Zpět na “Multimédia (filmy, hudba, CDs/DVDs)”

Kdo je online

Uživatelé prohlížející si toto fórum: CommonCrawl [Bot] a 0 hostů